<?xml version="1.0" standalone="no"?>
<!DOCTYPE svg PUBLIC "-//W3C//DTD SVG 1.1//EN" "http://www.w3.org/Graphics/SVG/1.1/DTD/svg11.dtd" >
<svg xmlns="http://www.w3.org/2000/svg">
<metadata>Generated by IcoMoon</metadata>
<defs>
<font id="theme-icons" horiz-adv-x="1024">
<font-face units-per-em="1024" ascent="960" descent="-64" />
<missing-glyph horiz-adv-x="1024" />
<glyph unicode="&#x20;" horiz-adv-x="512" d="" />
<glyph unicode="&#xe900;" glyph-name="arrow-down" d="M1024 652.782l-87.048 87.56-424.161-426.657-425.744 426.657-87.048-87.56 512.791-515.809 511.209 515.809z" />
<glyph unicode="&#xe901;" glyph-name="arrow-left" d="M435.893-65.764l-445.806 445.806 445.806 445.853 76.644-76.621-315.474-314.47h817.024v-109.478h-817.024l315.474-315.427z" />
<glyph unicode="&#xe902;" glyph-name="arrow-right" d="M588.107-65.763l445.806 445.806-445.806 445.853-76.644-76.621 315.474-314.47h-817.023v-109.478h817.023l-315.474-315.427z" />
<glyph unicode="&#xe903;" glyph-name="calendar" d="M978.662 370.45c-2.647 1.127-5.727 1.783-8.96 1.783-6.462 0-12.311-2.619-16.545-6.853l-227.756-227.756-66.162 66.162c-4.272 4.488-10.29 7.277-16.959 7.277-12.923 0-23.399-10.476-23.399-23.399 0-6.675 2.793-12.697 7.278-16.959l82.689-82.728c4.234-4.234 10.084-6.853 16.545-6.853s12.311 2.619 16.545 6.853l244.31 244.31c4.234 4.234 6.853 10.084 6.853 16.545s-2.619 12.311-6.853 16.545v0c-2.121 2.117-4.647 3.831-7.451 5.012l-0.154 0.058zM90.81 93.418v452.271h734.059v-189.81c0-12.923 10.476-23.399 23.399-23.399s23.399 10.476 23.399 23.399v0 381.92c0 12.923-10.476 23.399-23.399 23.399v0h-117.933v72.889c0 12.923-10.476 23.399-23.399 23.399v0h-103.348c-12.923 0-23.399-10.476-23.399-23.399v0-72.889h-220.832v72.889c0 12.923-10.476 23.399-23.399 23.399v0h-103.348c-12.923 0-23.399-10.476-23.399-23.399v0-72.889h-141.801c-12.923 0-23.399-10.476-23.399-23.399v0-667.783c0.011-12.918 10.481-23.388 23.398-23.399h513.149c12.923 0 23.399 10.476 23.399 23.399s-10.476 23.399-23.399 23.399h-489.749zM683.538 810.693v-49.49h-56.549v49.49h56.549zM683.538 714.403v-47.715h-56.549v47.715h56.549zM312.558 810.693v-49.49h-56.549v49.49h56.549zM312.558 714.403v-47.715h-56.549v47.715h56.549zM209.21 643.288c0-12.923 10.476-23.399 23.399-23.399v0h103.348c12.923 0 23.399 10.476 23.399 23.399v0 71.115h220.832v-71.115c0-12.923 10.476-23.399 23.399-23.399v0h103.348c12.923 0 23.399 10.476 23.399 23.399v0 71.115h94.535v-121.911h-734.059v121.911h118.381v-71.115z" />
<glyph unicode="&#xe904;" glyph-name="campus" d="M948.156-18.093v658.818c0 7.529-3.776 15.058-11.373 15.058l-216.19 109.163v176.948c-0.003 5.203-2.125 9.91-5.55 13.304l-0.001 0.001c-3.437 3.404-8.168 5.506-13.391 5.506-0.001 0-0.003 0-0.004 0h-379.271c-0.008 0-0.017 0-0.027 0-5.223 0-9.954-2.103-13.392-5.508l0.001 0.001c-3.426-3.395-5.549-8.102-5.551-13.305v0-176.948l-216.19-109.163c-7.574 0-11.373-7.529-11.373-15.058v-658.818h-53.132c-0.001 0-0.003 0-0.004 0-5.223 0-9.954-2.103-13.392-5.508l0.001 0.001c-3.423-3.397-5.542-8.104-5.542-13.305s2.118-9.909 5.54-13.304l0.001-0.001c3.436-3.412 8.168-5.523 13.394-5.529h986.105c0.001 0 0.003 0 0.004 0 5.234 0 9.973 2.111 13.415 5.53l-0.001-0.001c3.423 3.397 5.542 8.104 5.542 13.305s-2.118 9.909-5.54 13.304l-0.001 0.001c-3.437 3.404-8.168 5.506-13.391 5.506-0.010 0-0.018 0-0.028 0h-60.682zM227.553-18.093v165.643c0 0.004 0 0.008 0 0.013 0 5.206-2.123 9.917-5.55 13.314l-0.001 0.001c-3.44 3.412-8.177 5.522-13.407 5.522s-9.966-2.108-13.408-5.523l0.001 0.001c-3.44-3.398-5.571-8.114-5.574-13.328v0-165.643h-75.854v647.513l189.647 94.127v-741.64h-75.854zM474.084-18.093v188.231h75.854v-188.231h-75.854zM682.655-18.093h-94.801v207.065c-0.003 5.203-2.125 9.91-5.55 13.304l-0.001 0.001c-3.437 3.404-8.168 5.506-13.391 5.506-0.010 0-0.018 0-0.028 0h-113.746c-0.008 0-0.017 0-0.027 0-5.223 0-9.954-2.103-13.392-5.508l0.001 0.001c-3.426-3.395-5.549-8.102-5.551-13.305v0-207.065h-94.823v941.153h341.355v-941.153zM834.363-18.093v165.643c0 0.010 0 0.022 0 0.035 0 5.196-2.114 9.898-5.528 13.293l-0.001 0.001c-3.44 3.412-8.177 5.522-13.407 5.522s-9.966-2.108-13.408-5.523l0.001 0.001c-3.44-3.398-5.571-8.114-5.574-13.328v0-165.643h-75.854v741.64l189.647-94.127v-647.513h-75.854zM554.141 672.236c12.359 8.267 21.974 19.761 27.75 33.287l0.187 0.493c3.659 8.518 5.789 18.434 5.789 28.847 0 20.816-8.507 39.646-22.232 53.203l-0.007 0.007c-13.786 13.621-32.744 22.036-53.668 22.036-10.457 0-20.424-2.101-29.5-5.905l0.503 0.187c-14.088-5.887-25.661-15.438-33.859-27.472l-0.169-0.263c-8.001-11.736-12.776-26.229-12.776-41.836 0-20.819 8.496-39.655 22.21-53.227l0.007-0.006c13.773-13.641 32.73-22.069 53.656-22.069 15.695 0 30.284 4.742 42.409 12.871l-0.275-0.174zM527.216 770.858c9.869-3.481 17.517-11.085 20.985-20.687l0.074-0.237c1.708-4.855 2.248-10.002 1.641-15.103 0-9.979-3.978-19.554-11.103-26.611-6.879-6.825-16.354-11.042-26.813-11.042s-19.934 4.218-26.816 11.045l0.003-0.003c-6.859 6.79-11.11 16.202-11.125 26.608v0.003c-0.153 1.202-0.24 2.596-0.24 4.008 0 9.371 3.831 17.847 10.013 23.947l0.004 0.004c6.175 6.137 14.685 9.931 24.082 9.931 1.438 0 2.854-0.088 4.246-0.261l-0.166 0.017c1.219 0.153 2.631 0.24 4.062 0.24 3.994 0 7.828-0.681 11.395-1.933l-0.242 0.073zM562.569 400.015c12.359 8.267 21.974 19.761 27.75 33.287l0.187 0.493c3.656 8.514 5.782 18.424 5.782 28.83 0 20.814-8.504 39.641-22.225 53.196l-0.007 0.007c-13.786 13.621-32.744 22.036-53.668 22.036-10.457 0-20.424-2.101-29.5-5.905l0.503 0.187c-14.085-5.882-25.658-15.424-33.859-27.451l-0.169-0.261c-8.001-11.736-12.776-26.229-12.776-41.836 0-20.819 8.496-39.655 22.21-53.227l0.007-0.006c13.773-13.641 32.73-22.069 53.656-22.069 15.695 0 30.284 4.742 42.409 12.871l-0.275-0.174zM541.51 493.917c6.226-4.135 11.080-10.024 13.957-16.901 1.829-4.258 2.892-9.213 2.892-14.418 0-10.406-4.252-19.819-11.115-26.595l-0.004-0.004c-6.87-6.838-16.345-11.066-26.807-11.066-5.24 0-10.232 1.061-14.773 2.978l0.25-0.094c-7.043 2.944-12.831 7.719-16.93 13.737l-0.084 0.131c-4.008 5.869-6.401 13.117-6.405 20.923v0.001c-0.153 1.202-0.24 2.596-0.24 4.008 0 9.371 3.831 17.847 10.013 23.947l0.004 0.004c6.175 6.137 14.685 9.931 24.082 9.931 1.438 0 2.854-0.088 4.246-0.261l-0.166 0.017c7.507 0 14.834-2.203 21.082-6.338zM860.952 456.248c5.227 0.006 9.959 2.117 13.397 5.53l-0.001-0.001c3.423 3.397 5.542 8.104 5.542 13.305s-2.118 9.909-5.54 13.304l-0.001 0.001c-3.437 3.404-8.168 5.506-13.391 5.506-0.001 0-0.003 0-0.004 0h-91.025c-0.008 0-0.017 0-0.027 0-5.223 0-9.954-2.103-13.392-5.508l0.001 0.001c-3.423-3.397-5.542-8.104-5.542-13.305s2.118-9.909 5.54-13.304l0.001-0.001c3.44-3.418 8.181-5.529 13.414-5.529 0.001 0 0.003 0 0.004 0h91.025zM860.952 339.557c0.001 0 0.003 0 0.004 0 5.223 0 9.954 2.103 13.392 5.508l-0.001-0.001c3.429 3.398 5.553 8.109 5.553 13.317s-2.124 9.919-5.551 13.315l-0.001 0.001c-3.437 3.404-8.168 5.506-13.391 5.506-0.001 0-0.003 0-0.004 0h-91.025c-0.008 0-0.017 0-0.027 0-5.223 0-9.954-2.103-13.392-5.508l0.001 0.001c-3.429-3.398-5.553-8.109-5.553-13.317s2.124-9.919 5.551-13.315l0.001-0.001c3.437-3.404 8.168-5.506 13.391-5.506 0.010 0 0.018 0 0.028 0h91.024zM254.118 456.248c5.227 0.006 9.959 2.117 13.397 5.53l-0.001-0.001c3.423 3.397 5.542 8.104 5.542 13.305s-2.118 9.909-5.54 13.304l-0.001 0.001c-3.437 3.404-8.168 5.506-13.391 5.506-0.001 0-0.003 0-0.004 0h-91.025c-0.008 0-0.017 0-0.027 0-5.223 0-9.954-2.103-13.392-5.508l0.001 0.001c-3.423-3.397-5.542-8.104-5.542-13.305s2.118-9.909 5.54-13.304l0.001-0.001c3.44-3.418 8.181-5.529 13.414-5.529 0.001 0 0.003 0 0.004 0h91.025zM254.118 339.557c0.001 0 0.003 0 0.004 0 5.223 0 9.954 2.103 13.392 5.508l-0.001-0.001c3.429 3.398 5.553 8.109 5.553 13.317s-2.124 9.919-5.551 13.315l-0.001 0.001c-3.437 3.404-8.168 5.506-13.391 5.506-0.001 0-0.003 0-0.004 0h-91.025c-0.008 0-0.017 0-0.027 0-5.223 0-9.954-2.103-13.392-5.508l0.001 0.001c-3.429-3.398-5.553-8.109-5.553-13.317s2.124-9.919 5.551-13.315l0.001-0.001c3.437-3.404 8.168-5.506 13.391-5.506 0.010 0 0.018 0 0.028 0h91.024z" />
<glyph unicode="&#xe905;" glyph-name="chat" d="M159.182 966.849c-91.317 0-166.032-74.714-166.032-167.415v-445.519c0-91.317 74.714-167.415 166.032-167.415h249.048l239.363-237.979c11.069-11.069 23.521-4.151 23.521 5.534l-5.534 232.445h185.402c91.317 0 166.032 74.714 166.032 167.415v445.519c0 91.317-74.714 167.415-166.032 167.415h-691.799zM850.982 241.844h-243.513l1.384-56.728 2.767-123.14-182.635 181.251h-269.802c-60.878 0-110.688 49.81-110.688 112.071v445.519c0 60.878 49.81 110.688 110.688 110.688h691.799c60.878 0 110.688-49.81 110.688-112.071v-445.519c0-60.878-49.81-112.071-110.688-112.071zM297.542 683.212c-15.22 0-27.672-12.452-27.672-27.672s12.452-27.672 27.672-27.672h415.080c15.22 0 27.672 12.452 27.672 27.672s-12.452 27.672-27.672 27.672h-415.080zM297.542 529.632c-15.22 0-27.672-12.452-27.672-27.672s12.452-27.672 27.672-27.672h415.080c15.22 0 27.672 12.452 27.672 27.672s-12.452 27.672-27.672 27.672h-415.080z" />
<glyph unicode="&#xe906;" glyph-name="clock" d="M0 448c0 282.766 229.234 512 512 512s512-229.234 512-512-229.234-512-512-512-512 229.234-512 512zM930.901 448c0 231.367-187.534 418.901-418.901 418.901s-418.901-187.534-418.901-418.901 187.534-418.901 418.901-418.901 418.901 187.534 418.901 418.901zM672.455 350.009c15.381-7.815 25.737-23.52 25.737-41.643 0-25.714-20.844-46.558-46.558-46.558-7.589 0-14.756 1.817-21.086 5.038l0.265-0.123-186.169 93.099c-15.383 7.806-25.742 23.509-25.742 41.632 0 0.004 0 0.007 0 0.012v0 279.268c0 25.708 20.841 46.549 46.549 46.549s46.549-20.841 46.549-46.549v0-250.51l160.427-80.213z" />
<glyph unicode="&#xe907;" glyph-name="degree" d="M729.743 132.669v-154.071c0-0.001 0-0.004 0-0.005 0-11.311 9.169-20.48 20.48-20.48 6.161 0 11.688 2.721 15.442 7.026l0.020 0.024 76.718 88.228 76.739-88.228c3.773-4.351 9.308-7.085 15.483-7.085 11.3 0 20.46 9.16 20.46 20.46 0 0.022 0 0.042 0 0.064v-0.004 254.403c42.113 33.448 68.886 84.639 68.915 142.085v0.005c0 82.186-54.948 151.675-130.007 173.916v370.033c0 11.311-9.169 20.48-20.48 20.48v0h-853.033c-11.311 0-20.48-9.169-20.48-20.48v0-765.891c0-11.311 9.169-20.48 20.48-20.48v0h709.263zM857.866 98.058c-7.782 8.95-23.142 8.95-30.925 0l-56.238-64.717v175.165c21.139-9.409 45.805-14.889 71.75-14.889 0.026 0 0.051 0 0.077 0h-0.004c0.023 0 0.050 0 0.076 0 25.857 0 50.444 5.441 72.677 15.241l-1.155-0.454v-175.043l-56.259 64.676zM842.506 234.578c-77.556 0.105-140.399 62.954-140.493 140.504v0.009c0.093 77.554 62.939 140.399 140.484 140.493h0.009c77.572-0.070 140.44-62.924 140.534-140.484v-0.009c-0.116-77.553-62.959-140.388-140.503-140.493h-0.010zM853.053 898.56v-342.528c-3.482 0.205-6.963 0.532-10.506 0.532-100.065 0-181.473-81.408-181.473-181.453 0.024-57.356 26.705-108.474 68.324-141.645l0.366-0.282v-59.556h-688.804v724.931h812.073zM754.708 769.372c11.311 0 20.48 9.169 20.48 20.48s-9.169 20.48-20.48 20.48v0h-615.383c-11.311 0-20.48-9.169-20.48-20.48s9.169-20.48 20.48-20.48v0h615.363zM754.708 600.207c11.311 0 20.48 9.169 20.48 20.48s-9.169 20.48-20.48 20.48v0h-615.383c-11.311 0-20.48-9.169-20.48-20.48s9.169-20.48 20.48-20.48v0h615.363zM139.325 471.962c-11.311 0-20.48-9.169-20.48-20.48s9.169-20.48 20.48-20.48v0h433.091c11.311 0 20.48 9.169 20.48 20.48s-9.169 20.48-20.48 20.48v0h-433.091zM139.325 302.797c-11.311 0-20.48-9.169-20.48-20.48s9.169-20.48 20.48-20.48v0h433.091c11.311 0 20.48 9.169 20.48 20.48s-9.169 20.48-20.48 20.48v0h-433.091z" />
<glyph unicode="&#xe908;" glyph-name="design" d="M900.174 673.268c3.448 3.468 5.447 7.993 5.917 12.813 4.624 0.451 9.129 2.351 12.676 5.917 23.322 23.378 37.743 55.644 37.743 91.279s-14.421 67.9-37.745 91.282l0.003-0.003c-23.218 23.357-55.368 37.812-90.894 37.812-0.136 0-0.271 0-0.405-0.001h0.021c-34.482 0-66.887-13.42-91.259-37.812-3.624-3.624-5.544-8.228-5.936-12.97-4.721-0.431-9.307-2.253-12.735-5.681l-192.59-192.667-268.604 268.684c-7.837 7.837-21.688 7.837-29.525 0l-198.525-198.623c-3.775-3.776-6.111-8.992-6.111-14.752s2.335-10.976 6.111-14.752l268.604-268.684-174.133-174.154c-2.155-2.155-3.801-4.702-4.82-7.543l-64.34-174.642c-13.048-35.304-1.235-54.348 6.975-62.557 5.564-5.564 16.104-12.793 33.365-12.793 8.151 0 17.828 1.607 29.152 5.799l174.192 64.183c2.9 0.98 5.623 2.645 7.935 4.957l174.172 174.172 268.604-268.604c3.776-3.781 8.996-6.12 14.763-6.12s10.987 2.339 14.763 6.12l198.546 198.605c3.775 3.776 6.111 8.992 6.111 14.752s-2.335 10.976-6.111 14.752l-268.547 268.604 192.628 192.628zM889.261 845.029c15.78-15.819 25.537-37.652 25.537-61.763s-9.757-45.944-25.539-61.764l0.001 0.001c-1.372-1.372-2.409-2.9-3.331-4.507l-124.663 124.722c1.587 0.901 3.135 1.959 4.487 3.331 15.714 15.806 37.471 25.587 61.512 25.587 0.084 0 0.169 0 0.253 0h-0.013c23.315 0 45.258-9.091 61.754-25.607zM333.38 565.101c3.544 3.735 5.723 8.795 5.723 14.363 0 11.535-9.351 20.885-20.885 20.885-5.569 0-10.628-2.18-14.372-5.732l0.009 0.008-53.682-53.721-72.334 72.372 53.662 53.682c3.657 3.755 5.913 8.891 5.913 14.553 0 11.524-9.341 20.865-20.865 20.865-5.663 0-10.799-2.256-14.558-5.918l-53.677-53.677-75.723 75.762 169 169.098 253.871-253.91-169.058-169.078-46.727 46.727 53.702 53.721zM221.845 191.345c-3.795 3.895-9.091 6.312-14.952 6.312-11.524 0-20.865-9.341-20.865-20.865 0-5.86 2.416-11.157 6.307-14.947l60.348-60.387-144.001-53.055c-11.951-4.408-17.77-3.135-18.456-2.782-0.588 0.901-1.861 6.72 2.547 18.711v0.020l62.753 170.332 185.692 185.633c0.117 0.117 0.196 0.293 0.333 0.431l197.331 197.369c0.313 0.275 0.647 0.471 0.94 0.784 0.293 0.275 0.489 0.627 0.784 0.921l191.726 191.805 123.546-123.606-390.467-390.467c-0.255-0.235-0.548-0.392-0.803-0.667-0.255-0.235-0.412-0.529-0.647-0.784l-173.449-173.428-68.67 68.67zM686.996 103.986l53.702 53.702c3.78 3.777 6.117 8.996 6.117 14.763 0 11.527-9.344 20.871-20.871 20.871-5.761 0-10.976-2.333-14.752-6.108v0l-53.682-53.721-72.334 72.353 53.702 53.721c3.657 3.755 5.913 8.891 5.913 14.553 0 11.524-9.341 20.865-20.865 20.865-5.663 0-10.799-2.256-14.558-5.918l-53.696-53.716-46.727 46.727 169.078 169.078 253.793-253.851-169.020-169.098-75.802 75.782z" />
<glyph unicode="&#xe909;" glyph-name="education" d="M942.122 657.357l0.037 0.259c0 2.371-0.555 4.593-1.389 6.723-0.241 0.648-0.555 1.204-0.852 1.815-0.75 1.46-1.612 2.717-2.611 3.854l0.019-0.020c-0.481 0.555-0.926 1.111-1.481 1.63-1.217 1.089-2.599 2.034-4.095 2.785l-0.109 0.048c-0.5 0.259-0.889 0.611-1.408 0.833l-436.957 178.709c-2.133 0.896-4.613 1.417-7.213 1.417s-5.080-0.521-7.339-1.463l0.126 0.046-436.493-178.764c-6.999-2.913-11.829-9.696-11.829-17.608 0-7.92 4.839-14.707 11.723-17.568l0.126-0.046 162.208-66.205v-94.743c-18.389-4.445-36.779-8.982-55.168-13.556-26.964-6.704-53.983-13.408-80.965-19.63-25.982-5.797-38.742-22.408-37.908-49.316 0.796-29.168 0.592-59.076 0.389-87.984-0.093-13.371-0.185-26.742-0.185-40.093 0-113.318 63.89-203.765 170.505-241.822 7.63-2.889 15.778-4.426 23.519-4.426 3.26 0 6.464 0.278 9.908 0.926 82.891 17.186 175.43 121.318 180.042 202.653v0.278c24.075-4.018 48.057-6.112 71.52-6.112 149.523 0 268.655 80.947 273.655 84.392 0.518 0.371 0.907 0.833 1.371 1.222 0.704 0.574 1.389 1.093 1.982 1.759 1.745 1.976 3.093 4.347 3.891 6.958l0.034 0.135c0.333 1.056 0.518 2.129 0.667 3.241 0.093 0.814 0.463 1.518 0.463 2.352v253.84l135.781 55.427v-111.762c-23.296-11.76-39.353-44.483-39.353-85.651 0-51.668 25.093-90.632 58.372-90.632 33.26 0 58.354 38.964 58.354 90.632 0 41.168-16.056 73.891-39.335 85.651v139.819zM245.993 577.967l3.666 2.185 3.908 2.241c1.556 0.889 3.13 1.796 4.834 2.74 9.085 5.234 21.053 11.374 33.279 17.054l3.204 1.335 5.778 2.649c3.389 1.5 6.982 3.001 10.575 4.519l4.815 2.037c5.278 2.148 10.778 4.296 16.482 6.408l4.223 1.481c4.407 1.574 8.889 3.148 13.519 4.685 2.222 0.723 4.5 1.408 6.741 2.111 4 1.241 8.019 2.481 12.149 3.666 2.556 0.741 5.167 1.408 7.76 2.111 3.543 1.105 10.448 2.832 17.412 4.403l3.144 0.597c8.517 2.030 20.228 4.195 32.090 5.9l2.429 0.286c2.871 0.389 5.722 0.814 8.63 1.148 4.926 0.592 9.945 1.019 14.982 1.408 2.519 0.203 5 0.481 7.556 0.63 7.593 0.463 15.297 0.741 23.075 0.741 7.963 0 15.815-0.296 23.594-0.778 2.593-0.166 5.093-0.445 7.648-0.648 5.186-0.426 10.315-0.87 15.389-1.481 2.926-0.371 5.797-0.778 8.686-1.185 14.592-2.043 26.701-4.33 38.619-7.11l-2.914 0.573c2.649-0.611 5.333-1.185 7.945-1.833 4.629-1.111 9.13-2.334 13.611-3.574 2.222-0.592 4.445-1.166 6.63-1.815 5.797-1.667 11.445-3.444 16.963-5.259 0.704-0.222 1.463-0.426 2.148-0.667 6.222-2.074 12.222-4.223 18.056-6.408l5.24-2.037c3.945-1.537 7.852-3.074 11.593-4.629 13.641-5.599 23.465-10.098 33.129-14.871l-3.276 1.463c7.382-3.495 11.632-5.663 15.85-7.888l-2.886 1.387c1.259-0.648 2.593-1.315 3.778-1.963 3.074-1.611 5.926-3.167 8.593-4.648l1.537-0.852c3.111-1.741 5.889-3.333 8.371-4.815 0.87-0.5 1.537-0.926 2.315-1.389l3.407-2.056v-222.302c-1.278 0.704-2.722 1.481-4.074 2.185-0.982 0.555-1.945 1.056-2.963 1.611-3.889 2.037-7.963 4.167-12.371 6.352l-1.704 0.833c-6.219 3.279-15.828 7.775-25.579 12.001l-3.643 1.406c-1.185 0.5-2.297 1-3.519 1.5-1.767 0.931-7.333 3.199-12.94 5.383l-3.912 1.34c-1.537 0.592-3.111 1.166-4.685 1.741-0.84 0.497-5.555 2.212-10.299 3.866l-3.924 1.19-5.611 1.907c-2.753 1.1-9.341 3.187-15.984 5.149l-3.795 0.962c-0.574 0.185-1.185 0.315-1.759 0.481-10.598 3.213-25.122 6.741-39.87 9.644l-3.298 0.541c-1.704 0.333-3.333 0.685-5.056 1-4.828 0.981-12.62 2.217-20.471 3.258l-2.401 0.26c-1.833 0.259-3.685 0.426-5.519 0.648-6.241 0.741-12.537 1.334-18.926 1.796-9.436 0.788-20.491 1.258-31.648 1.296h-0.075c-13.792-0.056-27.34-0.767-40.702-2.105l1.757 0.142c-10.445-0.963-20.927-2.185-31.446-3.926-0.111 0-0.203 0-0.315-0.037l-0.037 6.518c0 8.722-5.963 16.352-14.444 18.464l-61.539 15.37c-32.593 8.167-64.724 16.241-96.891 24.075v97.595l0.056 0.037 3.315 1.982zM227.381 60.471c-3.759-0.648-8.334 0.13-13 1.889-92.521 33.001-145.596 108.151-145.596 206.116 0 13.278 0.093 26.538 0.185 39.816 0.203 29.242 0.408 59.464-0.408 89.354-0.278 9.204 0.371 9.352 8.278 11.111 27.353 6.296 54.557 13.075 81.743 19.815 18.834 4.704 37.668 9.37 56.298 13.852 3.055 0.685 5.482 1.037 8.39 1.037 0.21 0.016 0.454 0.025 0.7 0.025 0.77 0 1.518-0.090 2.236-0.26l-0.066 0.013c34.631-8.426 69.113-17.074 104.132-25.834l47.224-11.815c0.019-5.019 0.056-10.018 0.149-15.001l0.389-34.946 0.019-1.63c0.463-36.056 0.87-70.224-0.408-104.633-0.166-7.241-0.537-14.482-0.907-21.482-3.593-63.224-84.761-154.023-149.356-167.412zM416.386 291.514c0.019 5.056 0.13 10.167 0.13 15.241-0.056 16.186-0.222 32.538-0.445 49.316v0.074l-0.203 19.131c0.76 0.149 1.537 0.315 2.315 0.445 10.223 1.777 20.427 3.148 30.557 4.148 2.074 0.203 4.111 0.371 6.167 0.518 9.302 0.863 20.209 1.386 31.226 1.444h0.108c14.541-0.064 28.803-0.93 42.834-2.557l-1.777 0.168c8.815-0.926 17.482-2.111 25.964-3.556 1.723-0.296 3.5-0.518 5.204-0.814 9.964-1.815 19.63-3.963 29.038-6.296 2.389-0.611 4.704-1.259 7.056-1.889 7.463-1.982 14.741-4.074 21.797-6.296 2.092-0.667 4.241-1.296 6.296-1.982 8.519-2.815 16.741-5.741 24.538-8.722 1.463-0.555 2.815-1.148 4.26-1.723 6.482-2.556 12.704-5.13 18.593-7.704 1.852-0.833 3.741-1.63 5.538-2.444 13.556-6.112 25.278-12.037 34.779-17.167l1.574-0.852c-41.52-22.704-127.54-61.964-225.692-61.964-22.964 0-46.445 2.148-70.076 6.389 0.203 9.001 0.185 18.056 0.222 27.093zM750.007 608.375c-3.861 2.494-9.5 5.845-15.225 9.062l-2.035 1.049c0.789-0.332-0.973 0.653-2.742 1.627l-2.647 1.335c-1.945 1.056-4.018 2.148-6.112 3.241-1.907 1.019-3.741 1.982-5.778 3.018-2.519 1.296-5.24 2.63-7.963 3.963l-5.555 2.74c-0.655 0.483-4.819 2.437-9.008 4.342l-3.659 1.491-2.426 1.111c-5.223 2.315-10.704 4.629-16.371 6.926-1.889 0.76-3.889 1.5-5.834 2.259-0.262 0.28-4.247 1.845-8.255 3.365l-3.801 1.265c-2.389 0.87-4.871 1.723-7.315 2.574-0.136 0.222-4.069 1.594-8.026 2.923l-3.826 1.114c-2.686 0.889-5.445 1.723-8.204 2.574-3.227 1.183-10.255 3.247-17.342 5.165l-3.696 0.853c-8.104 2.33-19.977 5.084-31.997 7.419l-3.245 0.526c-3.167 0.592-6.315 1.185-9.537 1.723-2.083 0.432-6.952 1.174-11.844 1.839l-2.434 0.272c-3.148 0.426-6.222 0.889-9.407 1.259-5.315 0.611-10.722 1.037-16.149 1.481-2.778 0.203-5.482 0.5-8.278 0.667-7.461 0.483-16.21 0.764-25.022 0.778h-0.034c-8.444 0-16.797-0.296-25.056-0.796-2.778-0.185-5.463-0.463-8.204-0.685-5.482-0.445-10.927-0.889-16.297-1.518-3.148-0.371-6.222-0.833-9.334-1.259-4.852-0.667-9.685-1.371-14.444-2.185-18.484-3.161-33.745-6.61-48.721-10.746l3.48 0.819c-2.871-0.76-5.741-1.518-8.556-2.334-4.407-1.259-8.704-2.574-12.963-3.889-2.5-0.796-5.037-1.556-7.5-2.371-4.815-1.574-9.5-3.222-14.111-4.871-1.686-0.611-3.463-1.204-5.13-1.815-6.167-2.278-12.149-4.593-17.907-6.945-1.518-0.611-2.889-1.241-4.389-1.852-4.204-1.759-8.334-3.519-12.296-5.259-2.074-0.926-4-1.852-6.019-2.759-3.111-1.426-6.203-2.852-9.13-4.26-13.57-6.452-23.591-11.713-33.43-17.257l2.856 1.479c-1.852-1.019-3.519-1.963-5.167-2.908l-4.315-2.481-3.871-2.297-3.871-2.334-122.041 49.816 386.233 158.208 386.807-158.208-121.985-49.798-0.87 0.555zM902.789 431.889c0 34.167 14.426 52.594 20.315 52.594s20.315-18.427 20.315-52.594c0-34.167-14.444-52.594-20.315-52.594-5.889 0-20.315 18.427-20.315 52.594zM182.732 260.439l-17.315 23.482c-3.377 4.535-8.722 7.441-14.747 7.441-4.080 0-7.85-1.334-10.896-3.588l0.050 0.034c-4.545-3.358-7.461-8.696-7.461-14.715 0-4.082 1.34-7.851 3.605-10.89l-0.034 0.048 27.408-37.168c3.365-4.545 8.709-7.458 14.732-7.458 3.624 0 7 1.054 9.842 2.872l-0.073-0.044 118.263 74.354c8.556 5.37 11.13 16.667 5.741 25.186-3.301 5.167-9.006 8.543-15.5 8.543-3.612 0-6.978-1.044-9.815-2.846l0.074 0.044-103.873-65.298z" />
<glyph unicode="&#xe90a;" glyph-name="list" d="M184.32-64c-67.864 0-122.88 55.016-122.88 122.88v0 880.64c0 11.311 9.169 20.48 20.48 20.48v0h778.24c11.311 0 20.48-9.169 20.48-20.48v0-798.72h61.44c11.311 0 20.48-9.169 20.48-20.48v0-61.44c0-67.864-55.016-122.88-122.88-122.88v0h-655.36zM129.434-1.741c13.196-13.206 31.432-21.375 51.574-21.375 1.165 0 2.323 0.027 3.475 0.082l-0.163-0.006h8.192c41.871 5.837 73.751 41.408 73.751 84.425 0 0.704-0.009 1.405-0.026 2.104l0.003-0.104v56.934c0 11.311 9.169 20.48 20.48 20.48v0h552.96v778.24h-737.28v-860.16c0.052-24.026 10.446-45.614 26.963-60.558l0.070-0.063zM839.68-23.040c45.243 0 81.92 36.677 81.92 81.92v0 40.96h-614.4v-36.454c0-0.058 0-0.127 0-0.195 0-33.157-12.429-63.412-32.881-86.359l0.113 0.129h565.248zM225.28 263.68v40.96h368.64v-40.96h-368.64zM225.28 386.56v40.96h491.52v-40.96h-491.52zM225.28 509.44v40.96h491.52v-40.96h-491.52zM225.28 632.32v40.96h491.52v-40.96h-491.52zM225.28 755.2v40.96h409.6v-40.96h-409.6z" />
<glyph unicode="&#xe90b;" glyph-name="menu" d="M145.67 702.794h716.232c37.268 0 74.514-1.037 111.517 0h1.566c27.158 0 53.032 23.707 51.751 51.543-1.32 27.837-22.782 51.543-51.751 51.543h-807.324c-37.268 0-74.514 1.018-111.517 0h-1.566c-27.158 0-53.032-23.707-51.751-51.543 1.32-28.101 22.782-51.543 51.751-51.543h91.092zM262.11 388.668h406.237c27.158 0 53.052 23.707 51.751 51.525-1.282 27.837-22.764 51.543-51.751 51.543h-613.767c-27.158 0-53.032-23.707-51.751-51.543 1.32-27.818 22.782-51.525 51.751-51.525h207.531zM323.687 83.029h37.775c27.177 0 53.052 23.707 51.751 51.543-1.282 27.837-22.764 51.543-51.751 51.543h-306.884c-27.158 0-53.032-23.707-51.751-51.543 1.32-27.837 22.782-51.543 51.751-51.543h269.127z" />
<glyph unicode="&#xe90c;" glyph-name="park" d="M863.481 222.443c83.142 17.97 146.028 166.169 146.028 352.096 0 198.496-71.649 353.941-163.094 353.941-91.464 0-163.094-155.464-163.094-353.922 0-185.946 62.847-334.126 146.008-352.096v-215.121h-169.014v71.688h40.072v33.941h-373.564v-33.941h49.047v-71.688h-195.056v215.101c83.142 17.97 146.008 166.169 146.008 352.096 0 198.496-71.63 353.941-163.075 353.941s-163.094-155.464-163.094-353.922c0-185.946 62.885-334.126 146.008-352.096v-215.121h-153.581v-33.941h1024v33.941h-153.6v215.101zM180.814 386.383l103.668 76.339c-17.393-113.201-60.002-189.021-103.668-204.992v128.653zM289.98 509.002l-109.165-80.375v153.485l107.205 77.742c3.037-26.715 4.689-55.236 4.689-85.295 0-22.794-0.961-44.665-2.748-65.538zM34.787 574.539v0.48l111.875-83.719v-233.552c-56.793 20.776-111.875 142.818-111.875 316.81zM35.94 616.668c8.918 167.861 70.208 277.852 127.808 277.852 47.664 0 97.883-75.416 118.813-196.613l-101.766-73.802v79.183h-34.133v-169.514l-110.722 82.892zM410.004 7.342v71.688h216.178v-71.688h-216.159zM863.462 386.383l103.668 76.339c-17.413-113.201-60.022-189.021-103.668-204.992v128.653zM972.627 509.002l-109.165-80.394v153.504l107.224 77.742c3.017-26.715 4.67-55.236 4.67-85.295 0-22.794-0.961-44.665-2.748-65.538zM717.453 574.539v0.48l111.875-83.719v-233.552c-56.793 20.795-111.875 142.818-111.875 316.81zM718.607 616.668c8.918 167.88 70.208 277.871 127.808 277.871 47.664 0 97.883-75.416 118.813-196.613l-101.766-73.802v79.183h-34.133v-169.514l-110.722 82.873zM180.814 793.85v-56.581h-34.133v56.581h34.133zM863.5 793.85v-56.581h-34.133v56.581h34.133zM445.059 813.453c0.007 0 0.017 0 0.025 0 6.095 0 11.444 3.195 14.462 8.001l0.042 0.071c0.096 0.115 8.86 13.742 31.077 8.783 1.092-0.246 2.347-0.388 3.634-0.388 4.76 0 9.069 1.934 12.183 5.058v0c3.050 3.068 4.936 7.296 4.936 11.965 0 1.36-0.16 2.681-0.461 3.948l0.023-0.115c-0.058 0.269-6.054 28.156 8.187 42.321 3.092 3.065 5.007 7.315 5.007 12.012s-1.915 8.947-5.005 12.011l-0.001 0.001c-3.099 3.067-7.363 4.961-12.070 4.961s-8.971-1.894-12.071-4.962l0.001 0.001c-15.702-15.625-19.373-36.401-19.488-51.988-23.563-1.98-38.861-15.875-44.973-25.754-1.613-2.548-2.572-5.65-2.572-8.975 0-9.362 7.589-16.951 16.951-16.951 0.040 0 0.078 0 0.118 0h-0.006zM564.738 820.814c5.497 0 10.955 2.633 14.318 7.399 1.095 1.576 7.419 9.283 21.968 6.035 1.111-0.257 2.387-0.405 3.697-0.405 4.765 0 9.075 1.948 12.177 5.092l0.002 0.002c3.025 3.057 4.892 7.264 4.892 11.905 0 1.409-0.172 2.777-0.496 4.086l0.024-0.117c-0.038 0.192-4.517 20.949 5.785 31.212 3.092 3.065 5.007 7.315 5.007 12.012s-1.915 8.947-5.005 12.011l-0.001 0.001c-3.095 3.065-7.357 4.96-12.060 4.96s-8.965-1.894-12.061-4.961l0.001 0.001c-12.531-12.473-16.144-28.656-16.663-41.533-18.72-2.556-30.981-13.915-36.074-22.083-1.563-2.495-2.49-5.526-2.49-8.774 0-5.914 3.073-11.109 7.708-14.076l0.067-0.040c2.58-1.711 5.749-2.729 9.156-2.729 0.024 0 0.049 0 0.073 0h-0.004zM700.406 192.192v-33.96h-373.564v33.96h373.564z" />
<glyph unicode="&#xe90d;" glyph-name="search" d="M766.362 257.971c59.494 74.803 92.16 169.472 92.16 265.344 0 236.134-192.461 429.005-429.21 429.005s-428.032-192.87-428.032-429.005 192.435-429.005 428.032-429.005c94.464 0 188.928 32.742 264.755 92.339l257.741-258.33 73.472 73.651-258.918 256zM429.312 196.019c-178.432 0-324.224 146.099-324.224 324.966 0 178.842 145.766 324.966 324.224 324.966 178.432 0 324.224-146.125 324.224-324.966 0-178.867-145.792-324.966-324.224-324.966z" />
<glyph unicode="&#xe90e;" glyph-name="shield" d="M518.972 962.078c129.422 0 258.839-11.254 388.239-33.758v0l14.61-2.541v-508.913l-0.21-2.71c-40.122-257.936-173.41-417.302-398.259-474.955v0l-4.379-1.123-14.387 3.774c-79.343 21.69-146.997 56.486-202.891 104.241l-2.457 0.019-0.016 2.11c-96.825 83.915-157.913 207.202-182.889 369.096v0l-0.207 2.688v505.773l14.61 2.541c129.4 22.504 258.817 33.758 388.239 33.758zM678.904 46.113l-319.448-0.010c44.609-30.874 96.011-54.247 154.237-70.185v0l5.281-1.387 5.278 1.386c58.41 15.979 109.949 39.355 154.653 70.197zM786.571 152.492l-534.501 0.003c18.612-26.211 39.519-49.85 62.73-70.934l408.88-0.004c23.286 21.087 44.247 44.728 62.889 70.934zM844.052 258.868l-649.44 0.019c10.152-25.205 21.684-48.85 34.601-70.94l580.258 0.009c12.922 22.083 24.449 45.719 34.583 70.912zM876.563 365.263l-714.583-0.003c5.551-24.763 12.086-48.404 19.608-70.926l675.47 0.006c7.498 22.522 14 46.162 19.506 70.924zM886.541 471.658h-735.193l0.018-50.135 1.628-10.14c0.597-3.574 1.212-7.126 1.845-10.657l728.77 0.012 1.345 7.623 1.605 10.043-0.018 53.256zM886.541 578.040h-735.193v-70.921h735.193v70.921zM518.972 926.819c-127.389 0-254.786-11.078-382.197-33.237l14.573 2.469v-282.55h735.193l0.018 282.532-12.692 2.128c-109.208 17.636-218.405 27.132-327.597 28.488v0z" />
<glyph unicode="&#xe90f;" glyph-name="Logo-Mark" d="M512.030 960c180.663 0 357.769-30.446 365.206-31.75l36.147-6.286-0.012-500.199-0.096-2.396c-0.239-3.451-27.862-347.010-386.228-477.901l-15.065-5.468-15.029 5.491c-357.721 130.642-385.977 474.403-386.24 477.866l-0.096 502.607 36.159 6.286c7.461 1.293 184.722 31.75 365.254 31.75zM146.179 712.367h73.452v191.106c-39.119-5.242-64.057-9.524-66.743-9.986l-6.733-1.174 0.024-179.945zM226.746 199.798v203.144h-78.012c5.921-35.806 24.46-117.453 78.012-203.144zM502.265 497.031h-356.062v-58.792h356.062v58.792zM349.452 62.692c16.88-13.295 35.168-26.034 54.949-38.012v378.263h-54.949v-340.25zM751.772 180.691c-8.129-17.126-25.654-28.975-45.972-28.975-20.306 0-37.842 11.849-45.972 28.975-8.129-17.126-25.654-28.975-45.972-28.975-20.33 0-37.854 11.849-45.984 28.975-5.897-12.442-16.796-22.025-30.083-26.377v-53.573c13.287 4.353 24.186 13.936 30.083 26.366 8.129-17.103 25.654-28.963 45.984-28.963 20.306 0 37.83 11.86 45.972 28.963 8.129-17.103 25.666-28.963 45.972-28.963 3.713 0 7.258 0.51 10.744 1.257 20.222 19.7 37.961 40.1 53.468 60.618-7.819 5.1-14.218 12.181-18.241 20.673zM537.791 253.443v-45.556c13.287 4.329 24.186 13.924 30.083 26.366 8.129-17.126 25.654-28.963 45.984-28.963 20.306 0 37.83 11.837 45.972 28.963 8.129-17.126 25.666-28.963 45.972-28.963 20.318 0 37.842 11.837 45.972 28.963 8.129-17.126 25.666-28.963 45.984-28.963 1.098 0 2.101 0.036 3.068 0.107 9.908 16.296 18.563 32.402 26.119 48.046h-289.152zM613.857 44.582c-20.33 0-37.854 11.86-45.984 28.975-5.897-12.43-16.796-22.001-30.083-26.378v-63.607c51.475 21.088 95.226 47.003 132.364 75.622-4.226 4.127-7.759 8.978-10.326 14.363-8.129-17.115-25.654-28.975-45.972-28.975zM502.265 584.038h-356.074v-51.711h356.074v51.711zM502.265 677.071h-356.086v-57.724h356.086v57.724zM328.239 915.69c-26.478-2.42-51.141-5.076-73.070-7.709v-195.613h73.070v203.322zM436.871 712.367v210.664c-25.093-1.056-49.601-2.574-73.094-4.365v-206.299h73.094zM472.385 923.458v-211.091h73.094v211.091h31.432c-21.38 0.795-43.095 1.245-64.881 1.245-21.774 0-43.477-0.451-64.845-1.245h25.2zM762.706 908.716c-22.096 2.597-46.7 5.195-73.094 7.543v-203.892h73.094v196.348zM581.005 923.292v-210.925h73.082v206.762c-23.517 1.732-48.037 3.179-73.082 4.163zM798.245 904.304v-191.936h79.588l0.012 179.945-6.733 1.174c-2.817 0.486-30.214 5.195-72.867 10.817zM537.791 677.059v-388.308h304.778c30.118 74.614 35.132 131.354 35.228 132.433l0.024 255.875h-340.030zM502.265 402.942h-62.338v-396.528h-3.128c20.365-10.568 42.175-20.341 65.466-29.153v425.68zM313.914 402.942h-51.63v-253.456c15.173-19.119 32.291-38.013 51.63-56.218v309.674zM781.009 617.435l23.982-23.918 23.988 23.912-23.982 23.918-23.988-23.912zM716.311 617.432l23.985-23.915 23.985 23.915-23.985 23.915-23.985-23.915zM651.607 617.436l23.982-23.918 23.989 23.911-23.982 23.918-23.989-23.911zM586.931 617.436l23.982-23.918 23.989 23.911-23.982 23.918-23.989-23.911zM781.004 550.030l23.985-23.915 23.993 23.924-23.985 23.915-23.993-23.924zM716.339 550.049l23.988-23.912 23.982 23.918-23.988 23.912-23.982-23.918zM651.602 550.030l23.985-23.915 23.993 23.924-23.985 23.915-23.993-23.924zM586.926 550.031l23.985-23.915 23.994 23.923-23.985 23.915-23.994-23.923zM781.009 482.65l23.982-23.918 23.988 23.912-23.982 23.918-23.988-23.912zM716.311 482.647l23.985-23.915 23.985 23.915-23.985 23.915-23.985-23.915zM651.607 482.65l23.981-23.919 23.989 23.911-23.981 23.919-23.989-23.911zM586.931 482.65l23.982-23.919 23.989 23.911-23.982 23.919-23.989-23.911zM780.977 415.264l23.967-23.917 23.995 23.905-23.967 23.917-23.995-23.905zM716.288 415.281l23.97-23.913 23.984 23.9-23.97 23.913-23.984-23.9zM651.6 415.276l23.967-23.916 23.995 23.905-23.967 23.916-23.995-23.905zM586.899 415.276l23.967-23.916 23.995 23.905-23.967 23.916-23.995-23.905zM781.009 350.409l23.982-23.918 23.988 23.912-23.982 23.918-23.988-23.912zM716.311 350.406l23.985-23.915 23.985 23.915-23.985 23.915-23.985-23.915zM651.607 350.409l23.981-23.919 23.989 23.911-23.981 23.919-23.989-23.911zM586.931 350.408l23.982-23.918 23.988 23.912-23.982 23.918-23.988-23.912z" />
<glyph unicode="&#xe910;" glyph-name="play" d="M508.928 921.771c63.561 0 125.199-12.441 183.207-36.975 56.044-23.705 106.387-57.65 149.627-100.89 43.242-43.242 77.185-93.583 100.892-149.63 24.534-58.006 36.973-119.643 36.973-183.205s-12.439-125.199-36.975-183.207c-23.707-56.044-57.65-106.387-100.892-149.627-43.24-43.242-93.583-77.185-149.627-100.892-58.006-24.534-119.643-36.973-183.205-36.973s-125.199 12.439-183.205 36.975c-56.047 23.707-106.387 57.65-149.63 100.892-43.24 43.24-77.185 93.583-100.89 149.627-24.534 58.006-36.975 119.643-36.975 183.205s12.441 125.199 36.975 183.205c23.705 56.047 57.65 106.387 100.89 149.63 43.242 43.24 93.583 77.185 149.63 100.89 58.006 24.534 119.643 36.975 183.205 36.975zM508.928 960c-281.074 0-508.928-227.854-508.928-508.928s227.854-508.928 508.928-508.928c281.074 0 508.928 227.854 508.928 508.928s-227.854 508.928-508.928 508.928v0zM401.406 224.085c-2.989 0-5.992 0.7-8.752 2.122-6.363 3.278-10.36 9.837-10.36 16.993v415.744c0 7.158 3.997 13.715 10.36 16.993 6.363 3.281 14.023 2.726 19.853-1.429l291.499-207.872c5.030-3.589 8.016-9.385 8.016-15.564s-2.987-11.975-8.016-15.564l-291.499-207.872c-3.302-2.353-7.192-3.551-11.101-3.551zM420.523 621.835v-341.529l239.464 170.766-239.464 170.763z" />
<glyph unicode="&#xe911;" glyph-name="shield-vertical" d="M518.972 962.078c129.422 0 258.839-11.254 388.239-33.758v0l14.61-2.541v-508.913l-0.21-2.71c-40.122-257.936-173.41-417.302-398.259-474.955v0l-4.379-1.123-14.387 3.774c-218.826 59.822-348.739 219.324-388.255 475.466v0l-0.207 2.688v505.773l14.61 2.541c129.4 22.504 258.817 33.758 388.239 33.758zM535.623 578.040h-59.101l0.012-590.621c9.026-3.135 18.236-6.071 27.625-8.809l9.534-2.694 5.281-1.387 5.278 1.386c3.828 1.048 7.627 2.126 11.398 3.237l-0.027 598.887zM653.825 578.040h-82.741l0.004-587.185c29.604 10.879 57.192 23.937 82.771 39.185l-0.034 548.001zM441.061 578.040h-59.101l-0.007-546.523c18.629-11.302 38.333-21.418 59.114-30.354l-0.006 576.877zM748.386 578.040h-59.101l0.027-524.521c21.324 15.646 41.015 33.076 59.079 52.3l-0.004 472.223zM346.499 578.040h-76.76l5.482-455.425c21.272-25.178 45.036-47.576 71.299-67.208l-0.021 522.632zM886.541 578.040h-102.694l0.018-429.313c48.025 66.085 81.026 148.802 99.12 248.375l1.97 11.257 1.605 10.043-0.018 159.638zM151.366 421.523l1.628-10.14c15.164-90.807 42.208-168.017 81.215-231.796l-0.003 398.453h-82.86l0.018-156.517zM518.972 926.819c-127.389 0-254.786-11.078-382.197-33.237l14.573 2.469v-282.55h735.193l0.018 282.532-12.692 2.128c-109.208 17.636-218.405 27.132-327.597 28.488v0z" />
<glyph unicode="&#xe912;" glyph-name="arrow-up" d="M0 243.218l87.048-87.56 424.161 426.657 425.744-426.657 87.048 87.56-512.791 515.809-511.209-515.809z" />
<glyph unicode="&#xe913;" glyph-name="arrow-right-short" d="M307.218 960l-87.56-87.048 426.657-424.161-426.657-425.744 87.56-87.048 515.809 512.791-515.809 511.209z" />
<glyph unicode="&#xe914;" glyph-name="arrow-left-short" d="M716.782-64l87.56 87.048-426.657 424.161 426.657 425.744-87.56 87.048-515.809-512.791 515.809-511.209z" />
</font>
</defs>
</svg>
